關閉邊欄
贊助網站

[喜劇] [2013][美国][卑鄙的我2][720p HDRip x264 AC3][2.26GB]

本帖最後由 tykoay 於 2013-7-23 01:39 AM 編輯

《卑鄙的我2》正式海报(台湾) 《卑鄙的我2》角色海报(美国) 《卑鄙的我2》宽屏海报 译名:卑鄙的我2 又名: 神偷奶爸2(台) / 坏蛋奖门人2(港) 英文名:Despicable Me 2 导演: 皮艾尔柯芬 / 克里斯雷纳德 编剧: 肯达...        
                                

        
        
        《卑鄙的我2》正式海报(台湾)
        
        
        《卑鄙的我2》角色海报(美国)
        
        
        《卑鄙的我2》宽屏海报


        
        译名:卑鄙的我2
        又名: 神偷奶爸2(台) / 坏蛋奖门人2(港)
        英文名:Despicable Me 2

        导演: 皮艾尔·柯芬 / 克里斯·雷纳德
        编剧: 肯·达里奥 / 辛科·保罗
        主演: 史蒂夫·卡瑞尔 / 克里斯汀·韦格 / 米兰达·卡斯格拉夫 / 郑肯 / 莫伊塞斯·阿里亚斯 / 拉塞尔·布兰德 / 达纳·盖尔 / 本杰明·布拉特 / 史蒂夫·库根 / 纳西姆·帕杜雷德
        类型: 喜剧 / 动画 / 犯罪
        官方网站: www.despicableme.com
        制片国家/地区: 美国
        语言: 英语
        上映日期: 2013-06-20(澳大利亚) / 2013-07-03(美国)
        片长: 98分钟
        IMDb评分:7.8/10 from 34,442 users        
                IMDb链接: http://www.imdb.com/title/tt1690953/
                        
                卑鄙的我2的剧情简介 :        
                  自从与玛戈(米兰达·卡斯格拉夫 Miranda Cosgrove 配音)、伊迪丝(达娜·盖伊 Dana Gaier 配音)和阿格蕾丝(埃尔希·费舍 Elsie Fisher 配音)三个可爱的小女孩实现宿命的邂逅,曾经的大坏蛋格鲁(史蒂夫·卡瑞尔 Steve Carell 配音)可真彻底转型了,他金盆洗手,转而化身为慈祥可亲的爸爸和做得一手烂口味布丁果冻的商人。当然凡事没有尽善尽美的,在此期间,憧憬大坏蛋传奇人生的老搭档纳法利欧博士(拉塞尔·布兰德 Russell Brand 配音)离他而去,另谋高就。某天,格鲁被身怀绝技却鲁莽的特工露西·王尔德(克里斯汀·韦格 Kristen Wiig 配音)绑架,原来露西所在的集团研制出可以改变生物基因的药物,可他们位于南极的实验室被神秘窃贼偷走,因此才委托有过坏蛋经验的格鲁做卧底。         
                  经过一番考虑,格鲁接受了这项任务,带着超萌的小黄人们,和露西组成了爆笑连连的追凶搭档…

        
        -----------------------------------------
         
        Description
         
        Despicable Me 2 2013 720p HDRip x264 AC3 SmY


         Format : Matroska
              Format version : Version 4 / Version 2
              File size : 2.26 GiB
              Duration : 1h 33mn
              Overall bit rate : 3 448 Kbps
              Encoded date : UTC 2010-02-22 21:41:31
              Writing application : mkvmerge v5.9.0 ('On The Loose') built on Dec  9 2012 15:37:01
              Writing library : libebml v1.3.0 + libmatroska v1.4.0
           Video #1
              ID : 1
              Format : AVC
              Format/Info : Advanced Video Codec
              Format profile : High   @ L3.1
              Format settings, CABAC : Yes
              Format settings, ReFrames : 4 frames
              Muxing mode : Header stripping
              Codec ID : V_MPEG4/ISO/AVC
              Duration : 1h 33mn
              Bit rate : 3 250 Kbps
              Width : 1 280 pixels
              Height : 694 pixels
              Display aspect ratio : 1.85:1
              Frame rate : 20.000 fps
              Color space : YUV
              Chroma subsampling : 4:2:0
              Bit depth : 8 bits
              Scan type : Progressive
              Bits/(Pixel*Frame) : 0.183
              Stream size : 2.09 GiB (92%)
              Writing library : x264 core 116 r2074 2641b9e
        

           Audio #2
              ID : 2
              Format : AC-3
              Format/Info : Audio Coding 3
              Mode extension : CM (complete main)
              Format settings, Endianness : Big
              Muxing mode : Header stripping
              Codec ID : A_AC3
              Duration : 1h 33mn
              Bit rate mode : Constant
              Bit rate : 192 Kbps
              Channel(s) : 2 channels
              Channel positions : Front: L R
              Sampling rate : 48.0 KHz
              Bit depth : 16 bits
              Compression mode : Lossy
              Stream size : 129 MiB (6%)
              Default : Yes                        
              Forced : No
               
                -----------------------------------------------------------
               
                ===========
                ======================
               
                迅雷BT种子下载:
               
                720P高清   HDRip  2.26GB



字幕

附件: 您需要登錄才可以下載或查看附件。沒有帳號?註冊
贊助網站

thx.....
贊助網站

TOP

這種好片就算看過還是要推一下~                                
贊助網站

TOP

回復 1# tykoay

ths for sharing
贊助網站

TOP

hope this is real HD ! wait for sooo long ...
贊助網站

TOP

thanks for sharing
[/url][/img][/D%A2/27_avatar_middle%20(1).jpg[img][/img]
贊助網站

TOP

有這麼快,謝謝大大!
贊助網站

TOP

為什麼要兩才可以下載?謝!
贊助網站

TOP

還有字幕哦,謝謝大!
贊助網站

TOP

THANKS FOR SHARING
贊助網站

TOP

現在時間是 GMT+8, 2014-7-30 10:58 AM
本論壇言論純屬發表者個人意見,與 LaLuLaLu 立場無關
清除 Cookies - 聯繫我們 - LaLuLaLu 香港論壇 - Archiver - Lalulu 論壇搜索
瀏覽本網閣下默認自己為模擬社區公民身份,亦同意所有活動和言論只屬於模擬世界的組件.
Processed in 0.102276 second(s), 7 queries, Gzip enabled.